Jump to content
Tuts 4 You

Something For House Music Lovers


diablo2oo2

Recommended Posts

diablo2oo2

here is the content of the .cue file with track markers if somebody like to burn it on CD

electro_house_mix.cue

PERFORMER "Virtual DJ"
TITLE "Electro House Mix [2006]"
FILE "electro_house_mix.mp3" MP3
TRACK 01 AUDIO
INDEX 01 00:00:00
TRACK 02 AUDIO
INDEX 01 06:11:00
TRACK 03 AUDIO
INDEX 01 11:48:00
TRACK 04 AUDIO
INDEX 01 18:11:00
TRACK 05 AUDIO
INDEX 01 24:21:00
TRACK 06 AUDIO
INDEX 01 28:47:00
TRACK 07 AUDIO
INDEX 01 35:43:00
TRACK 08 AUDIO
INDEX 01 40:51:00
TRACK 08 AUDIO
INDEX 01 45:44:00
TRACK 10 AUDIO
INDEX 01 50:30:00
TRACK 11 AUDIO
INDEX 01 53:32:00
Link to comment
diablo2oo2
http://rapidshare.de/files/22039253/trance.dance.house.mix.mp3.html

another mix, but harder (trance,dance,house) :^

Link to comment
diablo2oo2
Hi! :thumbsup:

Did like them!

I got a question! How much time does it consume to make such a good music?

huh? :(

its live mixed with virtualdj, so it takes so much time as the music plays.

Link to comment
diablo2oo2
d2k2: this new mix roxx my ****ing ears ! :yahoo: Like this stuff of music ! Could you upload the .cue file please ?

Bye

dont have a .cue file at the moment. i will make one later

Link to comment

Why o why does it ALWAYS have to be on f*cking rapidshare ??

check this thread for more uplaod services:
/>http://www.exetools.com/forum/showthread.php?t=9393

Edited by hosiminh
Link to comment
  • 5 weeks later...
diablo2oo2

time for some fresh music :D

http://rapidshare.de/files/25378741/mix_4.mp3.html

press "play" and listen.... :^

Link to comment
Nice work diablo, i like to listen your mixes. :thumbsup:

thank you. here is a new fresh mix. its my favorite mix at the moment

http://rapidshare.de/files/25912918/mix_5.mp3.html

:thumbsup:

playlist is inside the id3 tag...

and here is the CUE SHEET FILE (save as "mix_5.cue" and burn it on cd)

PERFORMER "Virtual DJ"
TITLE "Juli 2006 House Mix"
FILE "mix_5.mp3" MP3
TRACK 01 AUDIO
INDEX 01 00:00:00
TRACK 02 AUDIO
INDEX 01 06:37:50
TRACK 03 AUDIO
INDEX 01 10:27:10
TRACK 04 AUDIO
INDEX 01 13:07:70
TRACK 05 AUDIO
INDEX 01 16:38:50
TRACK 06 AUDIO
INDEX 01 20:25:30
TRACK 07 AUDIO
INDEX 01 24:22:4
TRACK 08 AUDIO
INDEX 01 26:29:10
TRACK 08 AUDIO
INDEX 01 29:50:10
TRACK 10 AUDIO
INDEX 01 33:34:10
TRACK 11 AUDIO
INDEX 01 36:04:40
Edited by diablo2oo2
Link to comment
  • 2 weeks later...

2Diablo: All of them are fine, but best for me is hard.trance.mix :D

But i didn't listen yet your newest one: mix_6 :hug:

Link to comment
  • 2 weeks later...
  • 4 weeks later...

Create an account or sign in to comment

You need to be a member in order to leave a comment

Create an account

Sign up for a new account in our community. It's easy!

Register a new account

Sign in

Already have an account? Sign in here.

Sign In Now
×
×
  • Create New...